#TITLE:No Reason;
#SUBTITLE:;
#ARTIST:Sum 41;
#TITLETRANSLIT:No Reason;
#SUBTITLETRANSLIT:;
#ARTISTTRANSLIT:Sum 41;
#CREDIT:Thu Nam , 15-1-2009;
#BANNER:No Reason-bn.png;
#BACKGROUND:No Reason-bg.png;
#LYRICSPATH:;
#CDTITLE:pm4cd.png;
#MUSIC:No Reason.mp3;
#OFFSET:0.000;
#SAMPLESTART:48.650;
#SAMPLELENGTH:20.000;
#SELECTABLE:YES;
#BPMS:0.000=196.000;
#STOPS:;
#BGCHANGES:;
// cache tags:
#FIRSTBEAT:1.000;
#LASTBEAT:604.000;
#SONGFILENAME:Songs/Music V.I.P ^_^/No Reason/No Reason.sm;
#HASMUSIC:1;
#HASBANNER:1;
#MUSICLENGTH:190.536;
// end cache tags

//---------------dance-single - ----------------
#NOTES:
     dance-single:
     :
     Hard:
     21:
     1.000,1.000,1.000,0.362,1.000,1642.000,443.000,69.000,0.000,156.000:
0000
1101
0000
0000
,
1011
0000
1110
0000
,
0111
0000
0111
1000
1000
1000
1000
0100
,
1101
0000
0000
0000
1011
0000
0100
0010
,
1101
0001
1110
0000
0000
0000
0000
0000
,
1101
0000
1011
0000
,
0111
1000
0001
0001
0001
0001
0001
0010
,
1101
0000
1110
0000
,
0111
1000
0101
0010
0001
0000
0001
0010
,
0100
0000
0100
0010
0001
0000
0010
0100
,
1000
0000
1000
0100
0010
0000
0010
0100
,
1000
0000
1101
0000
0000
0100
1011
0000
,
0000
0000
0111
1000
0001
0000
0110
1000
,
0001
0000
1010
0001
0010
0000
1001
0100
,
0010
0000
1100
0010
0001
0000
0101
0010
,
1000
0000
0000
0000
0022
1000
0100
1000
0100
1000
0100
1000
0100
1000
0100
1000
,
0100
1000
0100
1033
0101
0000
0010
0000
1001
0000
0100
0000
0010
0000
1000
0000
,
0101
0010
1100
0001
0110
1000
0001
0010
,
1100
0001
1010
0100
0011
1000
0100
0010
,
1001
0000
0010
0000
1000
0000
0001
0000
1010
0000
0100
0010
0100
1000
0100
1000
,
0100
0010
0001
0010
0101
0000
1000
0000
0110
0000
0001
0000
0100
0000
1000
0000
,
0011
0100
1001
0010
1100
0010
0001
1000
,
0101
0010
1100
0001
1010
0100
0001
1000
,
0110
0000
1000
0000
0001
0010
0100
0010
0100
1000
0100
0010
0001
0010
1000
0100
,
1000
0100
0010
0100
1001
0000
0010
0000
1100
0000
0001
0000
1010
0000
0100
0000
,
0011
1000
0101
0010
1001
0010
1100
0100
,
0110
0001
1001
0010
1010
0100
0101
1000
,
0011
0100
1001
0010
1100
0001
0110
0010
,
1001
0100
1100
0010
1010
0001
1100
0100
,
0101
0010
1001
1000
0101
0010
1100
1000
,
0011
0100
1001
0010
1100
0001
0110
0100
,
0011
1000
0101
0010
1001
0010
1100
0001
,
0110
1000
0102
0010
1100
1000
0110
1000
,
1010
0000
0100
0003
0120
0000
1000
0000
0101
0000
0100
0000
1001
0000
0001
0000
,
1100
0000
0100
0030
2001
0000
0010
0000
0110
0000
0001
0000
0101
0000
0010
0000
,
0011
0000
0100
3000
0120
0000
0001
0000
1001
0000
0100
0000
0101
0000
0001
0000
,
1100
0000
1000
0130
2001
0000
0010
0000
0110
0000
0001
0000
0101
0000
0010
0000
,
0011
0000
0100
3000
0102
0000
0010
0000
0110
0000
1000
0000
1100
0000
0010
0000
,
1010
0000
0100
0003
1110
0000
0010
0000
0101
0000
1000
0100
1011
0000
0001
0000
,
1010
0000
0100
0000
0011
0100
1000
0100
0010
0100
1000
0100
1000
0001
0010
0100
,
0010
0100
1000
0100
1011
0100
0001
1000
0010
1000
0100
0010
0100
0001
1000
0010
,
0100
0010
0001
1000
0100
0010
1000
0001
0100
0010
0001
1000
0100
0010
1000
0001
,
0100
0001
1000
0010
1000
0100
1000
0010
0100
1000
0100
0010
0100
0010
1000
0100
,
0010
0100
0001
1000
0010
0100
0010
1000
0001
0010
0001
1000
0010
0100
1000
0001
,
1000
0100
0010
1000
0100
0010
0001
0100
0010
0001
0010
0100
0001
0010
0100
1000
,
0010
0100
1000
0100
0010
1000
0001
0100
0010
0100
1000
0100
1000
0001
0010
0001
,
0100
0010
1000
0100
1000
0010
0100
0010
0001
0010
0100
1000
0001
1000
0100
1000
,
0010
0100
0010
0001
0010
0100
0001
0100
0001
0100
0001
0100
1000
0010
1000
0010
,
1000
0010
1000
0010
1001
0100
1000
0100
0010
0001
0100
0010
0100
1000
0010
0100
,
0010
0001
1000
0100
0010
0001
1000
0100
0010
0100
1000
0001
0010
0100
1000
0001
,
0010
0100
0001
1000
0010
0100
0001
0010
1000
0010
0100
0001
1000
0100
0001
0100
,
0010
0001
1000
0010
0001
1000
0010
1000
0001
0010
1000
0010
0100
1000
0100
0010
,
1000
0100
0010
0001
0100
0010
1000
0001
0100
1000
0010
0001
0100
0010
0001
0010
,
0100
0001
1000
0100
1000
0010
0100
0010
0001
0010
0001
1000
0100
0010
0100
0001
,
0010
0100
0010
0001
0100
0010
0100
1000
0001
0100
0010
1000
0010
0100
0001
1000
,
0100
0010
0001
1000
0100
1000
0100
0010
0100
1000
0001
0010
0100
0010
0001
0100
,
1000
0100
0010
0001
1110
0000
1110
0000
0001
0000
0010
0000
0100
0000
1000
0000
,
0111
0111
1000
0010
0100
0001
0010
0100
,
1010
0000
1001
0010
1100
0100
0101
0010
,
1010
0100
0011
1000
0101
0010
1001
0010
,
0110
1000
2100
0010
0101
0010
0110
0001
,
0101
0000
0010
3000
0012
0000
1000
0000
0110
0000
0010
0000
1100
0000
0100
0000
,
1010
0000
0100
0003
1100
0000
0001
0000
0110
0000
0100
0000
0101
0000
0010
0000
,
1001
0100
0011
1000
0110
0010
1001
0010
,
1010
0001
0110
1000
1100
0100
0101
0010
,
1001
0010
1010
0100
0011
1000
0101
0010
,
1001
0000
0100
1000
0102
0000
0010
0000
1100
0000
1000
0000
0110
0000
0100
0000
,
1010
0000
0010
0003
1200
0000
0010
0000
0011
0000
1000
0000
1010
0000
0010
0000
,
1001
0000
0010
0300
1020
0000
0100
0000
1001
0000
0100
0000
1100
0000
0001
0000
,
0101
0000
1000
0030
2100
0000
0001
0000
0110
0000
0100
0000
0011
0000
0100
0000
,
0101
0000
0010
3100
0012
0000
0100
0000
1010
0000
0010
0000
1100
0000
0100
0000
,
0110
0000
1000
0003
1020
0000
0100
0000
1001
0000
0100
0000
0101
0000
1000
0000
,
1100
0000
0001
0030
1101
0000
0010
0000
1001
0000
0010
0001
1100
0000
0001
0000
,
1010
0000
0100
0000
0011
0100
1000
0100
0010
0001
0100
0001
1000
0010
1000
0001
,
0010
0100
1000
0100
1011
0100
0001
0010
1000
0100
1000
0001
0100
0010
1000
0001
,
0100
0010
0001
0010
1100
0001
0010
1000
0100
0001
1000
0010
0001
0100
1000
0010
,
0100
0001
0010
0001
1010
0100
1000
0100
1000
0001
0100
0001
1000
0001
0100
0010
,
0100
1000
0010
1000
0110
0001
0010
0001
0100
1000
0001
1000
0100
0001
0100
0010
,
1000
0001
0100
1000
0110
0001
0100
1000
0010
1000
0100
0001
0010
0001
1000
0010
,
0100
1000
0001
1000
0101
0010
1000
0001
0010
0001
1000
0100
0010
1000
0001
1000
,
0010
0100
1000
0001
0110
0001
1000
0100
0010
1000
0100
1000
0001
0100
0010
1000
,
0010
0001
0100
1000
0111
1000
0100
1000
0100
1000
0100
1000
0001
0010
0001
0010
,
0001
0010
0001
0010
1101
0010
0001
0100
0010
1000
0100
1000
0011
0100
1000
0100
,
0010
0001
0010
0001
1010
0001
0010
0100
1000
0100
1000
0010
1100
0001
1000
0010
,
0100
1000
0100
1000
0011
0100
0010
0001
0010
0100
0010
0001
1100
0010
0001
1000
,
0010
0100
0001
1000
0110
1000
0100
0001
0010
0001
0100
0010
1001
0100
0010
0100
,
1000
0010
0100
0001
1010
0001
0100
0010
1000
0100
0010
0100
1001
0100
0010
0001
,
0100
1000
0001
0010
1100
0010
0001
1000
0010
0100
1000
0100
0011
1000
0001
0100
,
0001
1000
0100
1000
0011
0100
1000
0100
0010
0100
0010
0001
1010
0001
0010
0100
,
1000
0100
0010
0100
1001
0010
0100
1000
0110
0001
1010
0100
1010
0001
1010
0100
,
1010
0001
1010
0100
1012
0000
0100
0000
1100
0000
0010
0003
1201
0000
0010
0000
,
1001
0000
0010
0300
0121
0000
0001
0000
1100
0000
1000
0030
2101
0000
0001
0000
,
0110
0000
0010
3000
0211
0000
0001
0000
1010
0000
0001
0300
1120
0000
0100
0000
,
1001
0000
0100
0030
1102
0000
0100
0000
1010
0000
0010
0003
1201
0000
0010
0000
,
1001
0000
0010
0300
1021
0000
0100
0000
1001
0000
0100
0030
2110
0000
0010
0000
,
0101
0000
0001
3000
0112
0000
0010
0000
1100
0000
0100
0003
1021
0000
0100
0000
,
1100
0000
0001
0030
2110
0000
0100
0000
0011
0000
0100
3000
1201
0000
0010
0000
,
1001
0000
0010
0300
0112
0000
1000
0000
1010
0000
0100
0003
1120
0000
0001
0000
,
1001
0000
0100
0030
1101
0000
0010
0000
1100
0000
0000
0000
0001
0000
0100
0000
,
1000
0000
1000
0100
0001
0000
0100
0010
,
1000
0000
1000
0010
0100
0000
0001
0010
,
0100
1101
0000
1011
,
0000
0000
1110
0001
0100
0010
1001
0010
,
1000
0100
0011
0100
1000
0001
1100
0010
,
0001
0100
0011
1000
0100
0001
1010
0001
,
0100
1000
0011
1000
0100
0001
1010
0100
,
1000
0010
2110
0000
0000
0000
0202
0000
,
0000
0000
0000
3303
0121
0000
0000
0000
0000
0000
0000
0000
2200
0000
0000
0000
,
0000
0000
0000
3330
1102
0000
0000
0000
0000
0000
0000
0000
0220
0000
0000
0000
,
0000
0000
0000
0333
1210
0000
0000
0000
0000
0000
0000
0000
2002
0000
0000
0000
,
0000
0000
0000
3303
1012
0000
0000
0000
0000
0000
0000
0000
2200
0000
0000
0000
,
0000
0000
0000
3303
1201
0000
0000
0000
0000
0000
0000
0000
2020
0000
0000
0000
,
0000
0000
0000
3330
0121
0000
0000
0000
0000
0000
0000
0000
0202
0000
0000
0000
,
0000
0000
0000
0333
2101
0000
0000
0000
0000
0000
0000
0000
0202
0000
0000
0000
,
0000
0000
0000
3303
1021
0000
1100
0000
1001
0000
1100
0000
1001
0000
1100
0000
,
1001
0000
1100
0030
1001
0110
1001
0110
1001
0110
1001
0110
1001
0110
1001
0110
,
1001
0110
1001
0110
1011
0100
0001
0010
1100
0001
0010
0001
1010
0100
1000
0001
,
0110
1000
0100
0001
1100
0010
0100
0001
1010
0100
0010
0001
1100
0010
1000
0001
,
0110
1000
0001
0010
1001
0010
0100
1000
0011
0100
0001
1000
0101
0010
0001
1000
,
0011
0100
1000
0001
0110
1000
0001
0010
1100
0001
1000
0010
0101
1000
0100
0010
,
1100
0001
1000
0010
1100
0010
0001
0100
0011
1000
0100
0010
0101
0010
0100
1000
,
0011
1000
0010
0100
1001
0010
1000
0100
0011
1000
0001
0100
1010
0100
0001
0010
,
1100
0001
1000
0010
0101
0010
1000
0001
0110
1000
0100
0010
1001
0100
0010
0001
,
1010
0100
0010
0001
1100
0001
1000
0010
0101
1000
0100
0010
1001
0100
0010
0001
,
1100
0001
0010
0100
1011
0100
0001
1000
0101
0010
0001
1000
0110
0001
1000
0010
,
0011
1000
0010
0100
1010
0001
1000
0100
0011
1000
0100
0010
1010
0100
0010
1000
,
0011
0100
0010
0001
1001
0010
0100
0010
0101
1000
0100
0001
1100
0001
0010
1000
,
0101
0010
0001
1000
0110
0100
0010
0001
1100
0010
0100
1000
1010
0100
0001
0010
,
1001
0010
0100
0010
0101
1000
0100
0001
1010
0100
0010
0001
1001
0100
0001
1000
,
0110
0001
0010
1000
1100
0001
1000
0010
0101
0010
0001
0010
1010
0100
0010
0001
,
1100
0010
1000
0100
0110
1000
0100
0010
1001
0100
1000
0010
0101
1000
0100
0001
,
0110
0001
0010
0100
0011
1100
0011
1100
0011
1100
0011
1100
0011
1100
0011
1100
,
0011
1100
0011
1100
0121
1000
0001
0100
1000
0001
0100
0001
1000
0100
0001
1000
,
0001
0100
1000
0031
2100
0010
0001
0100
0010
0100
0001
0010
0100
0001
0010
0001
,
0100
0010
0001
3100
0012
1000
0010
0100
1000
0010
1000
0100
0010
0100
0010
1000
,
0010
0100
0010
1003
0120
1000
0100
0001
0100
1000
0001
0100
0001
1000
0100
1000
,
0001
0100
1000
0130
2001
0100
0001
0010
0001
0010
0100
0010
0001
0100
0010
0100
,
0001
0010
0001
3100
0012
1000
0100
0010
0100
1000
0010
0100
0010
1000
0100
0010
,
0100
0010
1000
0103
1020
0001
1000
0001
0100
0001
1000
0100
1000
0001
0100
0001
,
1000
0100
0001
1030
0201
1000
0010
1000
0010
1000
0010
1000
0001
0010
0001
0010
,
0001
0010
0001
0310
1001
0100
0011
1000
0101
0010
1001
0010
1100
0001
0110
1000
,
0101
0010
1001
0100
1010
0001
0110
1000
0101
0010
1001
0100
1010
0001
0110
1000
,
0101
0010
1001
0100
0011
1000
0101
0010
1001
0010
1100
0001
0110
1000
0101
0010
,
1100
0001
1010
0100
1001
0010
0101
1000
0110
0001
1010
0100
1001
0010
1100
0001
,
0110
1000
0101
0010
1001
0100
0011
1000
0110
0001
1010
0100
1001
0010
0101
1000
,
0110
0001
1010
0100
0011
1000
0110
1000
0101
0010
1001
0010
1100
0001
1010
0100
,
1001
0010
1100
0001
1010
0100
1001
0010
1100
0001
0110
1000
0101
0010
1001
0100
,
0011
0100
1001
0100
1010
0101
1010
0101
1010
0101
1010
0101
1010
0101
1010
0101
,
1010
0101
1010
0101
2220
0000
0000
0000
0001
0000
0001
0000
0001
0000
0000
0000
,
0001
0001
0002
0000
0000
0000
0000
0000
,
0000
0000
0000
0000
,
3333
0000
0000
0000
;

//---------------dance-single - ----------------
#NOTES:
     dance-single:
     :
     Medium:
     1:
     0.000,0.000,0.000,0.000,0.000,0.000,0.000,0.000,0.000,0.000:
0000
0000
0000
0000
;

//---------------dance-single - ----------------
#NOTES:
     dance-single:
     :
     Easy:
     1:
     0.000,0.000,0.000,0.000,0.000,0.000,0.000,0.000,0.000,0.000:
0000
0000
0000
0000
;
